亚洲影片

 找回密码
 立即注册

QQ登录

只需一步,快速开始

查看: 1574|回复: 14
打印 上一主题 下一主题

[左右格式] IMAX: 木乃伊法老之谜 [左右格式] IMAX Mummies - Secrets Of The Pharaohs 2007 3D 1080p Half-S

[复制链接]
跳转到指定楼层
楼主
发表于 2012-3-26 15:33:17 | 只看该作者 |只看大图 回帖奖励 |倒序浏览 |阅读模式

◎片  名 IMAX: Mummies: Secrets of the Pharaohs
◎译  名 IMAX: 木乃伊法老之谜
◎地  区 美国
◎年  份 2007
◎类  别 纪录/短片
◎IMDB评分 7.2/10 54 votes
◎IMDB链接 http://www.1mixi.com/title/tt0922522/
◎语  言 英语
◎片  长 39min 55sec
◎导  演 Keith Melton
◎演  员 Elana Drago
      William Hope
      Nasser Memarzia
      Crispin Redman
      Daud Shah
      Boris Terral
◎简  介
  影片《木乃伊-法老之谜》将带您跟随研究者与探险家一起,去拼凑埃及法老的考古与遗传学线索。这些有关过去的遗迹仿佛打开一扇窗口,让我们走进神秘而迷人的法老世界。除了进一步增强我们对千年前的古老文化、宗教、医学和日常生活的理解,今天的科学家们正在重建木乃伊的DNA和翻译古代文字,也增进了现代人类基因学和医学治疗的进步。解开法老之谜,也许就是看见了人类的未来文明。
亮点
  
  《木乃伊 法老之谜》由得奖团队拍摄而成 导演Keith Melton(神秘的印度);摄影导演KeithMelton(埃及之谜、神秘的印度);原著作者Arabella Cecil(乞力马扎罗山 非洲之巅);制片发行Giant ScreenFilms。影片公映于2007年3月,亚洲影片被提名过GSCA的多项奖,包括 最佳电影、最佳电影技术、最佳终身学习电影奖?!赌灸艘?法老之谜》已成为最受欢迎及成功的埃及题材的电影。
  本片由英国老演员克里斯托弗 _middot;李(曾演过《魔戒》、《星球大战》、《木乃伊》1959年)解说。电影通过研究古老的木乃伊结构来探究古埃及的神秘世界。古埃及人制造木乃伊的历史并非第一,也不是最后的,甚至不是最长的。但是它却是最伟大的。埃及人相信命运由神灵愿望决定,而神灵之愿又可能受他们死去的祖先影响。通过把祖先制成木乃伊以示敬畏,从而更好地掌握自己的命运。
  影片运用强有力的电脑制图与再建技术,讲述现代历史中最伟大的一个发现 19世纪晚期40个木乃伊隐藏点的发现,包括12个埃及国王,如 传说中的拉美西斯二世。18世纪晚期,随着罗塞塔石碑的发现及符号解码,研究者们能够更好地认识埃及象形文字、埃及的声望以及一些隐藏着的秘密。有关埃及的历史当时震惊了巴黎、纽约和伦敦的上流社会。1870年代,当一些古怪的文物出现在黑市时,世界上少数能够解释埃及象形文的人知道这绝不是普通的文物,因为上面有着国王标志。它们是非同一般的。尽管为了挖掘财宝付出大量精力与金钱,直到目前为止法老墓还未被发现。
  木乃伊又是什么呢?这些自古埃及以来保存的干尸令人着迷。为什么?是因为他们模糊了生与死之间的界线吗?或者是它提供了那么强有力的视觉效果让我们回到过去 不管是何种理由,很少有人置疑木乃伊是世界上最令人心动的事物之一。埃及之所以成为最令人神往的文明之一,很大程度上归因于发现的木乃伊。在早先年代,有些富有的欧洲人把木乃伊研磨成末当成药物;19-20世纪,科学家在打开木乃伊时由于技术原因不慎被破坏。今天,科学家已使用一种免进入的温度扫描仪来检查木乃伊。除了能增进我们了解久远的过去,科学家们正在重建木乃伊DNA和翻译古代文字,从而提高对现代人类基因的了解,改进医学治疗水平。著名的埃及古物学家及木乃伊专家BobBrier博士,以及DNA专家Angelique博士,希望能够从古老的木乃伊中获取关键的基因信息,从而有益于现代医学发展。

  1. Format : Matroska
  2. File size : 4.30 GiB
  3. Duration : 38mn 41s
  4. Overall bit rate : 15.9 Mbps
  5. Encoded date : UTC 2011-03-28 20:56:30
  6. Writing application : mkvmerge v4.6.0 ('Still Crazy After All These Years') built on Mar 10 2011 02:50:32
  7. Writing library : libebml v1.2.0 + libmatroska v1.1.0



  8. ID : 1
  9. Format : AVC
  10. Format/Info : Advanced Video Codec
  11. Format profile : High@L4.1
  12. Format settings, CABAC : Yes
  13. Format settings, ReFrames : 2 frames
  14. Format settings, GOP : M=3, N=15
  15. Muxing mode : Header stripping
  16. Codec ID : V_MPEG4/ISO/AVC
  17. Duration : 38mn 41s
  18. Bit rate mode : Variable
  19. Bit rate : 12.0 Mbps
  20. Maximum bit rate : 18.1 Mbps
  21. Width : 1 920 pixels
  22. Height : 1 080 pixels
  23. Display aspect ratio : 16:9
  24. Frame rate : 24.000 fps
  25. Original frame rate : 23.976 fps
  26. Color space : YUV
  27. Chroma subsampling : 4:2:0
  28. Bit depth : 8 bits
  29. Scan type : Progressive
  30. Bits/(Pixel*Frame) : 0.241
  31. Stream size : 3.25 GiB (76%)



  32. #1

  33. ID : 2
  34. Format : DTS
  35. Format/Info : Digital Theater Systems
  36. Codec ID : A_DTS
  37. Duration : 38mn 41s
  38. Bit rate mode : Constant
  39. Bit rate : 1 510 Kbps
  40. Channel(s) : 6 channels
  41. Channel positions : Front: L C R, Side: L R, LFE
  42. Sampling rate : 48.0 KHz
  43. Bit depth : 16 bits
  44. Compression mode : Lossy
  45. Stream size : 418 MiB (9%)
  46. Language : English



  47. ID : 3
  48. Format : DTS
  49. Format/Info : Digital Theater Systems
  50. Format profile : MA / Core
  51. Codec ID : A_DTS
  52. Duration : 38mn 41s
  53. Bit rate mode : Variable
  54. Bit rate : 2 056 Kbps / 1 510 Kbps
  55. Channel(s) : 6 channels
  56. Channel positions : Front: L C R, Side: L R, LFE
  57. Sampling rate : 48.0 KHz
  58. Bit depth : 16 bits
  59. Compression mode : Lossless / Lossy
  60. Language : German

  61. If you have anything you think you can offer our group you can contact us at.....

  62. bitbitzmod@gmail.com

  63. Follow us on Twitter - @FridayToker
复制代码

游客,如果您要查看本帖隐藏内容请回复


     
上一篇:美女甜甜圈 [左右格式] Idoling.3D.2010.Blu-ray.1080p.SBS 9.63GB
下一篇:俄罗斯芭蕾:安娜·卡列尼娜[左右格式]Anna.Karenina.Ballet.3D.HDTV.1080i.H.264.ts 5.98G

点评

海!外直播 t.cn/RxmJTrC 禁闻视频 t.cn/Rxlbuea 倒的高官越来越多,一薄一厚难以满足大家胃口,都在翘首以盼下一只“大老虎”,大清只有一个和珅,而今遍地是和珅,个中何故?看这个就知道了..  发表于 2017-7-24 13:26
各类视频 套图 查看网址: m5ys.info  发表于 2017-6-20 14:17
约炮热站 m5pa.com 兼职女 学生妹 少妇 熟女  发表于 2017-5-11 20:23
沙发
发表于 2012-3-26 16:18:47 | 只看该作者
从今天开始,不看电影不看美剧,只看记录片
板凳
发表于 2012-3-26 19:34:31 | 只看该作者
地板
发表于 2012-3-26 19:50:51 | 只看该作者
木乃伊,一个古老的传说.
5#
发表于 2012-4-9 01:58:31 | 只看该作者
刚买了3d电视,迫不及待试试
6#
发表于 2012-5-1 02:37:21 | 只看该作者
埃及的神祕讓外界看到一層面紗
但須層層抽絲剝繭
才有機會一睹容顏...

感謝樓主的分享!^^
7#
发表于 2012-5-7 22:21:53 | 只看该作者
好片 大家顶
8#
发表于 2012-5-30 23:47:03 | 只看该作者
喜欢纪录片,感谢楼主
9#
发表于 2017-2-20 21:49:19 | 只看该作者
中华人民共和国
10#
发表于 2017-6-20 13:46:41 | 只看该作者
法老王的秘密,谢谢分享
您需要登录后才可以回帖 登录 | 立即注册

本版积分规则

手机版|小黑屋|亚洲影片   

GMT+8, 2018-1-5 15:10 , Processed in 1.351556 second(s), 28 queries , Xcache On.

Powered by Discuz! X3

© 2001-2013 Comsenz Inc.

快速回复 返回顶部 返回列表