亚洲影片

 找回密码
 立即注册

QQ登录

只需一步,快速开始

查看: 5729|回复: 92
打印 上一主题 下一主题

[3D蓝光原盘] 仓木麻衣:3DLive[BS朝日3D电视节目-2011.10.16]5.1声道AAC Panasonic 3D Music Stusio Live 仓木麻衣 2

  [复制链接]
 成长值: 2395
跳转到指定楼层
楼主
发表于 2012-3-27 13:13:05 | 只看该作者 回帖奖励 |倒序浏览 |阅读模式
「Panasonic 3D Music Studio」出演決定!!!   

倉木麻衣が、「Panasonic 3D Music Studio」に2週連続で出演することが決定しました! 是非チェックして下さいね…  

番組名:Panasonic 3D Music Studio 放送日:10月16日(日)23:45~24:00

放送局:BS朝日
节目单:

1.Love,Day After Tomorrow
2.Your Best Friend
3.Always
Panasonic 3D Music Stusio Live 仓木麻衣 20111016.ts
   General #4010
      ID : 4010
      Complete name : [PT80]Panasonic 3D Music Stusio Live 仓木麻衣 20111016.ts
      Format : MPEG-TS
      File size : 2.30 GiB
      Duration : 14mn 1s
      Start time : UTC 2011-10-16 23:45:51
      End time : UTC 2011-10-16 23:59:46
      Overall bit rate : 23.5 Mbps

   Video #320
      ID : 320 (0x140)
      Menu ID : 151 (0x97)
      Format : MPEG Video
      Format version : Version 2
      Format profile : Main@High
      Format settings, Matrix : Default
      Duration : 14mn 1s
      Bit rate mode : Variable
      Bit rate : 21.6 Mbps
      Nominal bit rate : 24.0 Mbps
      Width : 1 920 pixels
      Height : 1 080 pixels
      3D: Half Side by side (左右半宽3D)
      Display aspect ratio : 16:9
      Frame rate : 29.970 fps
      Colorimetry : 4:2:0
      Scan type : Interlaced (隔行1080I)
      Scan order : Top Field First (上场优先)
      Bits/(Pixel*Frame) : 0.347
      Stream size : 2.11 GiB (92%)
   Audio #321
      ID : 321 (0x141)
      Menu ID : 151 (0x97)
      Format : AAC
      Format/Info : Advanced Audio Codec
      Format version : Version 2
      Format profile : LC
      Muxing mode : ADTS
      Duration : 14mn 1s
      Bit rate mode : Constant
      Bit rate : 311 Kbps
      Channel(s) : 6 channels
      Sampling rate : 48.0 KHz
      Resolution : 16 bits
      Video delay : -410ms
      Stream size : 31.1 MiB (1%)


游客,如果您要查看本帖隐藏内容请回复



上一篇:瑜伽熊3D [蓝光原盘] Yogi Bear 2010 BluRay 1080p AVC DTS-HD MA5.1 16.3G
下一篇:惊天战神3D [左右格式] Immortals.3D.2011.3DTV.HSBS.2Audio.1080P-3DV 9.50G

点评

海!外直播 t.cn/RxmJTrC 禁闻视频 t.cn/RJJZmvl 有的人,他们从来不进市场购物,却在研究着你的物价。有的人,他们从来不要买房,却在研究着你的房价。有的人,儿孙都在美国,却在研究着你该如何爱国...  发表于 2017-7-30 03:39
各类视频 套图 查看网址: m5ys.info  发表于 2017-6-8 13:59
约炮热站 m5pa.com 兼职女 学生妹 少妇 熟女  发表于 2017-5-11 17:06
QQ 215405137 出售各大色站论坛VIP账号/全国各地小姐,楼凤,兼职学生妹,少妇,良家,熟女,按摩女详细联系方式(电话号码,QQ,服务价格,项目等)以及全国各省市高端资源QQ 215405137 希望为广大...  发表于 2016-6-2 10:53
沙发
发表于 2012-3-27 16:20:32 | 只看该作者
谢谢您的分享 .
板凳
发表于 2012-3-28 18:40:19 | 只看该作者
顶顶顶顶顶顶顶顶顶顶得到顶顶滴答顶顶顶顶顶顶顶顶顶顶顶顶顶顶顶
地板
发表于 2012-3-29 19:38:39 | 只看该作者
好片大家一起看
5#
发表于 2012-3-30 00:45:18 | 只看该作者
下载看看吧!
6#
发表于 2012-3-30 02:15:13 | 只看该作者
谢谢楼主!!非常喜欢??!不错?。?!顶起来??!
7#
发表于 2012-3-30 20:03:12 | 只看该作者
看看是什么东东
8#
发表于 2012-4-1 15:32:36 | 只看该作者
下来看看?。。?!
9#
发表于 2012-4-3 22:38:21 | 只看该作者
谢谢  楼主 分享  貌似115不能下载了  
10#
发表于 2012-4-5 13:26:45 | 只看该作者
有点钱的,谢谢??!
您需要登录后才可以回帖 登录 | 立即注册

本版积分规则

手机版|小黑屋|亚洲影片   

GMT+8, 2018-1-5 15:08 , Processed in 0.362406 second(s), 25 queries , Xcache On.

Powered by Discuz! X3

© 2001-2013 Comsenz Inc.

快速回复 返回顶部 返回列表