亚洲影片

 找回密码
 立即注册

QQ登录

只需一步,快速开始

查看: 5960|回复: 149
打印 上一主题 下一主题

[动作] 四大名捕2/四大名捕2:铁血天牢 The.Four.2.2013.720p.KOR.HDRip.XviD-NEUES 2.21 G...

  [复制链接]
 成长值: 0
跳转到指定楼层
楼主
发表于 2014-1-17 18:09:21 | 只看该作者 |只看大图 回帖奖励 |倒序浏览 |阅读模式





◎译  名 四大名捕2/四大名捕2:铁血天牢
◎片  名 The Four 2
◎年  代 2013
◎国  家 中国
◎类  别 动作/悬疑/奇幻/武
◎语  言 普通
◎字  幕 韩文(内嵌)
◎IMDB评分6.2/10 from 39 user
◎IMDB链接 http://www.1mixi.com/title/tt3341084
◎视频尺寸 1280 x 720
◎文件大小 1CD  2.21 Gi
◎片  长 1h 57mn
◎导  演 陈嘉上 Gordon Cha
      秦小珍 Janet Chun
◎主  演 邓超 Chao Deng  ....冷血
      刘亦菲 Yifei Liu  ....无情
      邹兆龙 Collin Chou  ....铁手
      郑中基 Ronald Cheng  ....追命
      黄秋生 Anthony Wong  ....诸葛正我
      江一燕 Yiyan Jiang  ....姬?;?br />       吴秀波 Xiubo Wu  ....安世耿
      柳岩 Yan Liu  ....如烟
      成泰燊 Taishen Cheng  ....捕神
      邓萃雯 Shereen Tang  ....翠娘
      李子雄 Waise Lee  ....王爷
      于承惠 Cheng-Hui Yu
      包贝尔 Beier Bao
      向恬冉 Tian Ran Xiang
      鬼鬼 Guigui
      刘俊伟 Lawrence Lau
      周海媚 Kathy Chow
      张兆辉 Siu-Fai Cheung
      卢惠光 Ken Lo
      苗驰 Chia Miao

◎简  介 




  多事的追命(郑中基 饰)、铁手(邹兆龙 饰)?;ㄕ?,撮合冷血(邓超 饰)、无情(刘亦菲 饰)这对小情人,神侯府上下正其乐融融,空气却传来浓烈的血腥味道,三里之外的城郊老宅,杀人凶案正在发生!
  
  四大名捕前往现场,奋力追凶。  




  六扇门接获消息,捕神(成泰燊 饰)也带同姬摇花(江一燕 饰)等前来了解案情,双方合并追查,发现此案与六扇门早前追查的几宗灭门案有牵连。   




  悬案未决,六扇门却在碑林发现了捕神的尸体,而此前正是诸葛先生(黄秋生 饰)约捕神在碑林见面,一切线索都指向了诸葛先生。为探明真相,诸葛正我回到碑林查看,没想到却碰到了一位绝迹江湖多年的老朋友。双方对峙之时,四大名捕和六扇门也相继赶到,再生枝节。六扇门将诸葛先生和无情收押天牢。  
  四大名捕群龙无首,名存实亡。此时,王爷(李子雄 饰)忽访天牢,奉皇上旨意要即刻治无情死罪。铁血大牢之内,一场权力、仇恨、爱情、友情的角力就此展开……




花絮

·邓超评三位女主角:“亦菲越来越性感了,作为她的‘姐妹’我特别开心;一燕文艺清新,我很喜欢看她朋友圈的旅行随笔,她是随着自己思想做事的姑娘;柳岩生活中她就是个‘汉子’,什么都不那么在乎,睁眼睛睡觉还流口水?!?br />
·邹兆龙在拍摄《四大名捕》系列前后,他的两个妹妹先后因忧郁症自杀离世,令他深受打击。但处在拍戏期间他无法脱身,也没有告诉任何人,自己默默承受。

·虽然邓超在《四大名捕2》里只是暴怒的时候才会变成狼人,但为了几分钟的戏份,他每天都要花六个小时做特效化妆,才能变成“一只狼”。




·为了让狼眼效果更逼真,剧组特意从美国定制了狼眼“美瞳”,邓超也为此克服了“隐形眼镜恐惧症”,结果戴上以后却被刘亦菲直呼“很萌”,像个小猫咪。.




·片中姬?;ㄓ氡涑墒魅说陌彩拦⒂幸怀∥窍?,据江一燕透漏,这是在片场她和吴秀波老师的自然发挥,“我们俩看着对方的眼睛,然后情不自禁的就吻起来了”。




·影片主题曲由胡夏演唱。畅销书《人生需要揭穿》作者、著名媒体人丁丁张首次试水歌词,《放下》古风与平实融合,极具画面感。

  1. Complete name              : The.Four.2.2013.720P.KOR.HDRip..XviD-NEUES.avi
  2. Format                                   : AVI
  3. Format/Info                              : Audio Video Interleave
  4. Format profile                           : OpenDML
  5. File size                                : 2.21 GiB
  6. Duration                                 : 1h 57mn
  7. Overall bit rate                         : 2 698 Kbps
  8. Writing application                      : PotEncoder
  9. Video
  10. ID                                       : 0
  11. Format                                   : MPEG-4 Visual
  12. Codec ID                                 : XVID
  13. Codec ID/Hint                            : XviD
  14. Duration                                 : 1h 57mn
  15. Source duration                          : 1h 4mn
  16. Bit rate                                 : 1 360 Kbps
  17. Width                                    : 1 280 pixels
  18. Height                                   : 720 pixels
  19. Display aspect ratio                     : 16:9
  20. Frame rate                               : 29.970 fps
  21. Color space                              : YUV
  22. Chroma subsampling                       : 4:2:0
  23. Compression mode                         : Lossy
  24. Bits/(Pixel*Frame)                       : 0.049
  25. Stream size                              : 1.11 GiB (50%)
  26. Audio
  27. ID                                       : 1
  28. Format                                   : MPEG Audio
  29. Codec ID                                 : 55
  30. Codec ID/Hint                            : MP3
  31. Duration                                 : 1h 57mn
  32. Source duration                          : 1h 4mn
  33. Bit rate                                 : 192 Kbps
  34. Channel(s)                               : 2 channels
  35. Sampling rate                            : 44.1 KHz
  36. Compression mode                         : Lossy
  37. Stream size                              : 88.0 MiB (4%)
  38. Alignment                                : Aligned on interleaves
  39. Interleave, duration                     : 26 ms (0.78 video frame)
  40. Interleave, preload duration             : 26 ms
复制代码









游客,如果您要查看本帖隐藏内容请回复



上一篇:【史泰龙施瓦辛格13票房】【金蝉脱壳】【HD-1024.MP4】【中字】
下一篇:[2012][韩国][犯罪][盗贼同盟、盗贼们][HD—RMVB][韩语中字][720P][韩国影史票房第三]
沙发
发表于 2014-1-17 18:12:20 | 只看该作者

板凳
发表于 2014-1-17 18:15:25 | 只看该作者
看了LZ的帖子,我只想说一句很好很强大!
地板
发表于 2014-1-17 18:24:23 | 只看该作者
好给力呀,谢谢
5#
发表于 2014-1-17 18:25:09 | 只看该作者
期待第二部更加精彩!
6#
发表于 2014-1-17 18:25:22 | 只看该作者
终于等到高清版的了......
7#
发表于 2014-1-17 18:25:43 | 只看该作者
是不是和第一不一样给力呀!期待中
8#
发表于 2014-1-17 18:29:41 | 只看该作者
等到高清版的了
9#
发表于 2014-1-17 18:55:47 | 只看该作者
是高清的吗?   是的就真给力了
10#
发表于 2014-1-17 18:58:42 | 只看该作者
四大名捕2/四大名捕2:铁血天牢 The.Four.2.2013.720p.KOR.HDRip.XviD
您需要登录后才可以回帖 登录 | 立即注册

本版积分规则

手机版|小黑屋|亚洲影片   

GMT+8, 2017-12-20 19:00 , Processed in 0.234322 second(s), 25 queries , Xcache On.

Powered by Discuz! X3

© 2001-2013 Comsenz Inc.

快速回复 返回顶部 返回列表