亚洲影片

 找回密码
 立即注册

QQ登录

只需一步,快速开始

查看: 553|回复: 7
打印 上一主题 下一主题

[爱情] 爱在初春惊变时/该女子奇怪的身体 Spring.2014.1080p.BluRay.REMUX.AVC.TrueHD.5.1-RARBG 23.51GB

[复制链接]
 成长值: 0
跳转到指定楼层
楼主
发表于 2015-6-5 11:47:17 | 只看该作者 |只看大图 回帖奖励 |倒序浏览 |阅读模式

◎译  名 爱在初春惊变时/该女子奇怪的身体

◎片  名 Spring

◎年  代 2014

◎国  家 美国

◎类  别 爱情/科幻/恐怖

◎语  言 英语

◎上映日期 2015-03-20(美国)/2014-09-05(多伦多亚洲影片节)

◎IMDb评分  6.7/10 from 3,473 users

◎IMDb链接  http://www.1mixi.com/title/tt3395184/

◎豆瓣评分 6.8/10 from 487 users

◎豆瓣链接 http://www.1mixi.com/subject/25941964/

◎片  长 105分钟

◎导  演 贾斯汀·本森 Justin Benson / 艾伦·穆尔黑德 Aaron Moorhead

◎主  演 卢·泰勒·普奇 Lou Taylor Pucci

      Nadia Hilker

      Francesco Carnelutti

      尼克·耐文 Nick Nevern


◎简  介


  在意大利的小镇里,一个与众不同的爱情正在萌芽。


一切那么美丽却残酷,但也正是因为这个独一无二的爱情,让春天来得更灿烂。


Before Sunrise gets a supernatural twist in this tale of an American backpacker in Italy who falls in love with a beautiful young woman harbouring a dark, primordial secret.


获奖记录

    2014年奥斯汀奇幻电影节  最佳男演员  卢·泰勒·普奇


    2015年棕榈泉国际电影节  Directors to Watch




  • Video

  • ID                                       : 1

  • Format                                   : AVC

  • Format/Info                              : Advanced Video Codec

  • Format profile                           : High@L4.1

  • Format settings, CABAC                   : Yes

  • Format settings, ReFrames                : 2 frames

  • Codec ID                                 : V_MPEG4/ISO/AVC

  • Duration                                 : 1h 49mn

  • Bit rate mode                            : Variable

  • Width                                    : 1 920 pixels

  • Height                                   : 1 080 pixels

  • Display aspect ratio                     : 16:9

  • Frame rate mode                          : Constant

  • Frame rate                               : 23.976 fps

  • Color space                              : YUV

  • Chroma subsampling                       : 4:2:0

  • Bit depth                                : 8 bits

  • Scan type                                : Progressive

  • Title                                    : Spring.2014.1080p.BluRay.REMUX.AVC.TrueHD.5.1-RARBG

  • Language                                 : English

  • Default                                  : No

  • Forced                                   : No



  • Audio #1

  • ID                                       : 2

  • Format                                   : TrueHD

  • Codec ID                                 : A_TRUEHD

  • Duration                                 : 1h 49mn

  • Bit rate mode                            : Variable

  • Maximum bit rate                         : 4 428 Kbps

  • Channel(s)                               : 6 channels

  • Channel positions                        : Front: L C R, Side: L R, LFE

  • Sampling rate                            : 48.0 KHz

  • Bit depth                                : 24 bits

  • Compression mode                         : Lossless

  • Title                                    : Spring.2014.1080p.BluRay.REMUX.AVC.TrueHD.5.1-RARBG

  • Language                                 : English

  • Default                                  : Yes

  • Forced                                   : No



  • Audio #2

  • ID                                       : 3

  • Format                                   : AC-3

  • Format/Info                              : Audio Coding 3

  • Mode extension                           : CM (complete main)

  • Format settings, Endianness              : Big

  • Codec ID                                 : A_AC3

  • Duration                                 : 1h 49mn

  • Bit rate mode                            : Constant

  • Bit rate                                 : 640 Kbps

  • Channel(s)                               : 6 channels

  • Channel positions                        : Front: L C R, Side: L R, LFE

  • Sampling rate                            : 48.0 KHz

  • Bit depth                                : 16 bits

  • Compression mode                         : Lossy

  • Stream size                              : 502 MiB (2%)

  • Title                                    : Spring.2014.1080p.BluRay.REMUX.AVC.TrueHD.5.1-RARBG

  • Language                                 : English

  • Default                                  : No

  • Forced                                   : No



  • Audio #3

  • ID                                       : 4

  • Format                                   : AC-3

  • Format/Info                              : Audio Coding 3

  • Mode extension                           : CM (complete main)

  • Format settings, Endianness              : Big

  • Codec ID                                 : A_AC3

  • Duration                                 : 1h 49mn

  • Bit rate mode                            : Constant

  • Bit rate                                 : 192 Kbps

  • Channel(s)                               : 2 channels

  • Channel positions                        : Front: L R

  • Sampling rate                            : 48.0 KHz

  • Bit depth                                : 16 bits

  • Compression mode                         : Lossy

  • Stream size                              : 151 MiB (1%)

  • Title                                    : Spring.2014.1080p.BluRay.REMUX.AVC.TrueHD.5.1-RARBG

  • Language                                 : English

  • Default                                  : No

  • Forced                                   : No



  • Text #1

  • ID                                       : 5

  • Format                                   : PGS

  • Muxing mode                              : zlib

  • Codec ID                                 : S_HDMV/PGS

  • Codec ID/Info                            : Picture based subtitle format used on BDs/HD-DVDs

  • Language                                 : English

  • Default                                  : No

  • Forced                                   : No



  • Text #2

  • ID                                       : 6

  • Format                                   : PGS

  • Muxing mode                              : zlib

  • Codec ID                                 : S_HDMV/PGS

  • Codec ID/Info                            : Picture based subtitle format used on BDs/HD-DVDs

  • Language                                 : Spanish

  • Default                                  : No

  • Forced                                   : No



  • Menu

  • 00:00:00.000                             : en:Chapter 01

  • 00:03:39.052                             : en:Chapter 02

  • 00:11:44.495                             : en:Chapter 03

  • 00:19:57.029                             : en:Chapter 04

  • 00:26:14.864                             : en:Chapter 05

  • 00:39:10.514                             : en:Chapter 06

  • 00:48:14.016                             : en:Chapter 07

  • 00:58:16.493                             : en:Chapter 08

  • 01:09:14.108                             : en:Chapter 09

  • 01:22:18.266                             : en:Chapter 10

  • 01:33:19.760                             : en:Chapter 11

  • 01:45:42.627                             : en:Chapter 12










游客,如果您要查看本帖隐藏内容请回复
上一篇:我的爱我的新娘[内封中字] My.Love.My.Bride.2014.1080p.BluRay.x264.DTS-WiKi 8.95GB
下一篇:枪长莫及 Beyond.the.Reach.2014.1080p.BluRay.AVC.DTS-HD.MA.5.1-RARBG 18.93GB

点评

海!外直播 t.cn/RxmJTRS 禁闻视频 t.cn/RJJZmvY “绝不照搬西方模式”西方模式是什么?不敢说.①新闻自由,不敢搬,因为害怕人民监督.②官员财产公开,不敢搬,因为害怕腐败曝光.③官员选举产生,不敢搬,因为害怕人民不   发表于 2017-7-29 12:04
沙发
发表于 2016-8-31 15:00:45 | 只看该作者
一种强大的崔 情yao 名称: 浪硕曼 见效快效果好,本品颜色为无色无味,可迅速溶于各种饮料中。女士饮用本品后,大 腿内侧酥 麻,全身发热,内 阴 发 痒急不可待与您共渡爱河。百 度   浪硕曼   可见 专注崔情十年更多产品推荐加扣 10094-32648

点评

约炮热站 512ox.com 兼职女 学生妹 少妇 熟女  发表于 2016-10-12 00:43
板凳
发表于 2016-8-31 19:49:05 | 只看该作者
111111111111111111111111
地板
发表于 2016-8-31 19:54:59 | 只看该作者
kkkkkkkkkkkkkkkkkkkkkkkkkkkkkkkk
5#
发表于 2017-7-28 02:54:17 | 只看该作者
ddddddddddddddddddddddddddddddddddd
6#
发表于 2017-11-10 13:56:52 | 只看该作者
不错下来欣赏谢谢
您需要登录后才可以回帖 登录 | 立即注册

本版积分规则

手机版|小黑屋|亚洲影片   

GMT+8, 2017-12-20 18:44 , Processed in 0.310225 second(s), 20 queries , Xcache On.

Powered by Discuz! X3

© 2001-2013 Comsenz Inc.

快速回复 返回顶部 返回列表