亚洲影片

 找回密码
 立即注册

QQ登录

只需一步,快速开始

查看: 980|回复: 9
打印 上一主题 下一主题

[喜剧] 性和死亡101/性与死亡101/101夜情 Sex.and.Death.101.2007.1080p迅雷高清电影下载 13GB

[复制链接]
 成长值: 0
跳转到指定楼层
楼主
发表于 2015-6-23 18:01:43 | 只看该作者 |只看大图 回帖奖励 |倒序浏览 |阅读模式

◎译  名 性和死亡101/性与死亡101/101夜情

◎片  名 Sex and Death 101

◎年  代 2007

◎国  家 美国

◎类  别 喜剧/剧情/爱情

◎语  言 英语

◎上映日期 2007-09-27

◎IMDb评分  6.1/10 from 8,998 users

◎IMDb链接  http://www.1mixi.com/title/tt0497972/

◎豆瓣评分 6.1/10 from 2,093 users

◎豆瓣链接 http://www.1mixi.com/subject/1917299/

◎片  长 Germany: 100 分钟(European Film Market)/USA: 100 分钟/USA: 117 分钟(Starz)

◎导  演 丹尼尔·沃特斯 Daniel Waters

◎主  演 西蒙·贝克 Simon Baker

      薇诺娜·瑞德 Winona Ryder

      莱丝莉·比伯 Leslie Bibb

      罗伯特·维斯多姆 Robert Wisdom


◎简  介


  布兰克(西蒙·贝克 Simon Baker 饰)拥有一份稳定的工作和不菲的薪水,更让人羡慕的是,他和感情十分要好的女友即将踏入婚姻的殿堂,而就在这个节骨眼上,一封神秘邮件的到来打破了布兰克平静的生活。邮件里,除了列出了101个名字外别无他物,而眼尖的布兰克很快就发现,那 些曾经和自己上过床的女人竟然无一例外都被记录在了这101个名字之中,那么,剩下72个陌生的名字又代表了什么呢?

  凭借着男人的本能,布兰克带着名单过上了性福的生活,可当他阅尽了各式各样的美女之后,那个叫做妮尔(薇诺娜·瑞德 Winona Ryder 饰)的“女魔头”的出现让这整件事情变得复杂起来。


Video
ID                                       : 1
Format                                   : AVC
Format/Info                              : Advanced Video Codec
Format profile                           : High@L4.1
Format settings, CABAC                   : Yes
Format settings, ReFrames                : 4 frames
Codec ID                                 : V_MPEG4/ISO/AVC
Duration                                 : 1h 57mn
Bit rate                                 : 14.4 Mbps
Width                                    : 1 920 pixels
Height                                   : 1 080 pixels
Display aspect ratio                     : 16:9
Frame rate mode                          : Constant
Frame rate                               : 23.976 fps
Color space                              : YUV
Chroma subsampling                       : 4:2:0
Bit depth                                : 8 bits
Scan type                                : Progressive
Bits/(Pixel*Frame)                       : 0.290
Stream size                              : 11.6 GiB (89%)
Writing library                          : x264 core 146 r2538 121396c
Encoding settings                        : cabac=1 / ref=4 / deblock=1:-3:-3 / analyse=0x3:0x133 / me=umh / subme=11 / psy=1 / psy_rd=1.00:0.15 / mixed_ref=1 / me_range=32 / chroma_me=1 / trellis=2 / 8x8dct=1 / cqm=0 / deadzone=21,11 / fast_pskip=0 / chroma_qp_offset=-3 / threads=12 / lookahead_threads=2 / sliced_threads=0 / nr=0 / decimate=1 / interlaced=0 / bluray_compat=0 / constrained_intra=0 / bframes=8 / b_pyramid=2 / b_adapt=2 / b_bias=0 / direct=3 / weightb=1 / open_gop=0 / weightp=2 / keyint=250 / keyint_min=23 / scenecut=40 / intra_refresh=0 / rc_lookahead=40 / rc=2pass / mbtree=1 / bitrate=14414 / ratetol=1.0 / qcomp=0.60 / qpmin=0 / qpmax=69 / qpstep=4 / cplxblur=20.0 / qblur=0.5 / vbv_maxrate=50000 / vbv_bufsize=62500 / nal_hrd=none / filler=0 / ip_ratio=1.40 / aq=1:0.90
Language                                 : English
Default                                  : Yes
Forced                                   : No

Audio
ID                                       : 2
Format                                   : DTS
Format/Info                              : Digital Theater Systems
Mode                                     : 16
Format settings, Endianness              : Big
Codec ID                                 : A_DTS
Duration                                 : 1h 57mn
Bit rate mode                            : Constant
Bit rate                                 : 1 509 Kbps
Channel(s)                               : 6 channels
Channel positions                        : Front: L C R, Side: L R, LFE
Sampling rate                            : 48.0 KHz
Bit depth                                : 24 bits
Compression mode                         : Lossy
Stream size                              : 1.24 GiB (9%)
Language                                 : English
Default                                  : Yes
Forced                                   : No

Menu
00:00:00.000                             : en:Chapter 01
00:17:29.048                             : en:Chapter 02
00:30:04.803                             : en:Chapter 03
00:40:58.289                             : en:Chapter 04
00:59:24.561                             : en:Chapter 05
01:15:43.539                             : en:Chapter 06
01:30:28.423                             : en:Chapter 07
01:50:56.024                             : en:Chapter 08





游客,如果您要查看本帖隐藏内容请回复
上一篇:灰姑娘/仙履奇缘[国粤语中字]2015 BluRay 1080p迅雷高清电影下载 38.3GB
下一篇:狼少年/狼族少年 A.Werewolf.Boy.2012.BluRay.1080p迅雷高清电影下载 10.8G

点评

海!外直播 t.cn/RxmJTRo 禁闻视频 t.cn/RJ7ga9s 一个国家有三千所普通大学,学生大多自费;但却有6000所党校是花纳税人的钱办学,学生全都用纳税人的钱上学!令人发指的是它们的毕业生犯罪率几乎百分之百!  发表于 2017-7-29 12:05
板凳
发表于 2016-2-26 20:18:31 | 只看该作者
好电影要分享…………
地板
发表于 2016-3-20 10:59:20 | 只看该作者
一定非常精彩,期待
5#
发表于 2016-4-6 21:13:42 | 只看该作者
感谢分享好碟了。
6#
发表于 2016-6-13 14:36:33 | 只看该作者
电影要分享
7#
发表于 2016-6-13 16:01:59 | 只看该作者
好电影要分享…………
8#
发表于 2017-7-28 02:54:52 | 只看该作者
ddddddddddddddddddddddddddddddddddddddddddd
9#
发表于 2017-8-1 18:16:26 | 只看该作者
不错的东东,顶起来。
您需要登录后才可以回帖 登录 | 立即注册

本版积分规则

手机版|小黑屋|亚洲影片   

GMT+8, 2017-12-20 18:51 , Processed in 0.433949 second(s), 29 queries , Xcache On.

Powered by Discuz! X3

© 2001-2013 Comsenz Inc.

快速回复 返回顶部 返回列表