亚洲影片

 找回密码
 立即注册

QQ登录

只需一步,快速开始

查看: 931|回复: 6
打印 上一主题 下一主题

[上下格式] 疯狂外星人/家园[3D上下]Home.2015.1080p.3D迅雷高清电影下载 17.2GB

[复制链接]
 成长值: 0
跳转到指定楼层
楼主
发表于 2015-7-6 18:15:14 | 只看该作者 |只看大图 回帖奖励 |倒序浏览 |阅读模式

◎译  名 疯狂外星人/家园/无敌安乐窝(港)/好家在一起(台)/斯麦克节快乐

◎片  名 Home

◎年  代 2015

◎国  家 美国

◎类  别 喜剧/科幻/动画/冒险

◎语  言 英语

◎上映日期 2015-03-07(博尔德亚洲影片节)/2015-03-27(美国)/2015-04-24(中国大陆)

◎IMDb评分  6.8/10 from 23,730 users

◎IMDb链接  http://www.1mixi.com/title/tt2224026/

◎豆瓣评分 7.3/10 from 21,337 users

◎豆瓣链接 http://www.1mixi.com/subject/10827341/

◎片  长 94分钟

◎导  演 蒂姆·约翰逊 Tim Johnson

◎主  演 吉姆·帕森斯 Jim Parsons

      蕾哈娜 Rihanna

      史蒂夫·马丁 Steve Martin

      詹妮弗·洛佩兹 Jennifer Lopez

      马特·琼斯 Matt Jones

      布赖恩·斯特帕尼克 Brian Stepanek

      阿普里尔·劳伦斯 April Lawrence

      斯蒂芬·凯林 Stephen Kearin

      丽莎·斯图尔特 Lisa Stewart

      艾普尔·温切尔 April Winchell


◎简  介


  远在宇宙另一端的波波星人因为不堪忍受瓜星人的侵掠,于是举族远迁,将蔚蓝的地球视为他们新的定居点。在颟顸的领袖的指挥下,波波星人将人类驱逐到澳大利亚一处专门修建的定居点,还美其名曰与人类和平共处。绰号“小费”的女孩格莱图蒂•图奇是城市中唯一的落网者,她思念被抓走的母亲,于是带着爱猫驱车寻找母亲的下落。半路上小费遭遇了一名波波星人小欧,小欧是一个令同族人唯恐避之不及的麻烦所在,他不久前用手中的仪器发送了乔迁派对的邀请,谁知其中一条群发给了瓜星人,他由此被同类视作叛徒遭到追捕。

  类似的遭遇让小费和小欧坐上同一辆车,他们由此踏上惊险的旅程,期间则得知瓜星人追逐波波星人的原因……




  • Video

  • ID                                       : 1

  • Format                                   : AVC

  • Format/Info                              : Advanced Video Codec

  • Format profile                           : High@L4.1

  • Format settings, CABAC                   : Yes

  • Format settings, ReFrames                : 2 frames

  • Codec ID                                 : V_MPEG4/ISO/AVC

  • Duration                                 : 1h 33mn

  • Nominal bit rate                         : 16.0 Mbps

  • Width                                    : 1 920 pixels

  • Height                                   : 1 080 pixels

  • Display aspect ratio                     : 16:9

  • Frame rate mode                          : Constant

  • Frame rate                               : 23.976 fps

  • Color space                              : YUV

  • Chroma subsampling                       : 4:2:0

  • Bit depth                                : 8 bits

  • Scan type                                : Progressive

  • Bits/(Pixel*Frame)                       : 0.322

  • Title                                    : Home.2015.1080p.3D.BluRay.Half-OU.x264.DTS-HD.MA.7.1-RARBG

  • Writing library                          : x264 core 142

  • Encoding settings                        : cabac=1 / ref=1 / deblock=1:-1:-1 / analyse=0x3:0 / me=hex / subme=5 / psy=0 / mixed_ref=0 / me_range=16 / chroma_me=1 / trellis=0 / 8x8dct=1 / cqm=0 / deadzone=21,11 / fast_pskip=1 / chroma_qp_offset=0 / threads=8 / lookahead_threads=2 / sliced_threads=0 / nr=0 / decimate=1 / interlaced=0 / bluray_compat=0 / constrained_intra=0 / bframes=2 / b_pyramid=0 / b_adapt=1 / b_bias=0 / direct=1 / weightb=1 / open_gop=0 / weightp=0 / keyint=24 / keyint_min=13 / scenecut=40 / intra_refresh=0 / rc=abr / mbtree=0 / bitrate=16000 / ratetol=1.0 / qcomp=0.60 / qpmin=0 / qpmax=69 / qpstep=4 / ip_ratio=1.40 / pb_ratio=1.30 / aq=1:1.00

  • Default                                  : Yes

  • Forced                                   : No

  • Color range                              : Limited

  • Color primaries                          : BT.709

  • Transfer characteristics                 : BT.709

  • Matrix coefficients                      : BT.709



  • Audio #1

  • ID                                       : 2

  • Format                                   : DTS

  • Format/Info                              : Digital Theater Systems

  • Format profile                           : MA / Core

  • Mode                                     : 16

  • Format settings, Endianness              : Big

  • Codec ID                                 : A_DTS

  • Duration                                 : 1h 33mn

  • Bit rate mode                            : Variable

  • Bit rate                                 : Unknown / 1 509 Kbps

  • Channel(s)                               : 8 channels / 6 channels

  • Channel positions                        : Front: L C R, Side: L R, Back: L R, LFE / Front: L C R, Side: L R, LFE

  • Sampling rate                            : 48.0 KHz

  • Bit depth                                : 24 bits

  • Compression mode                         : Lossless / Lossy

  • Title                                    : Home.2015.1080p.3D.BluRay.Half-OU.x264.DTS-HD.MA.7.1-RARBG

  • Language                                 : English

  • Default                                  : Yes

  • Forced                                   : No



  • Audio #2

  • ID                                       : 3

  • Format                                   : DTS

  • Format/Info                              : Digital Theater Systems

  • Format profile                           : ES

  • Mode                                     : 16

  • Format settings, Endianness              : Big

  • Codec ID                                 : A_DTS

  • Duration                                 : 1h 33mn

  • Bit rate mode                            : Constant

  • Bit rate                                 : 1 509 Kbps

  • Channel(s)                               : 6 channels

  • Channel positions                        : Front: L C R, Side: L R, LFE

  • Sampling rate                            : 48.0 KHz

  • Bit depth                                : 24 bits

  • Compression mode                         : Lossy

  • Stream size                              : 1 012 MiB (6%)

  • Title                                    : Home.2015.1080p.3D.BluRay.Half-OU.x264.DTS-HD.MA.7.1-RARBG

  • Language                                 : English

  • Default                                  : No

  • Forced                                   : No



  • Audio #3

  • ID                                       : 4

  • Format                                   : DTS

  • Format/Info                              : Digital Theater Systems

  • Mode                                     : 16

  • Format settings, Endianness              : Big

  • Codec ID                                 : A_DTS

  • Duration                                 : 1h 33mn

  • Bit rate mode                            : Constant

  • Bit rate                                 : 768 Kbps

  • Channel(s)                               : 6 channels

  • Channel positions                        : Front: L C R, Side: L R, LFE

  • Sampling rate                            : 48.0 KHz

  • Bit depth                                : 24 bits

  • Compression mode                         : Lossy

  • Stream size                              : 515 MiB (3%)

  • Title                                    : Home.2015.1080p.3D.BluRay.Half-OU.x264.DTS-HD.MA.7.1-RARBG

  • Language                                 : French

  • Default                                  : No

  • Forced                                   : No



  • Audio #4

  • ID                                       : 5

  • Format                                   : DTS

  • Format/Info                              : Digital Theater Systems

  • Mode                                     : 16

  • Format settings, Endianness              : Big

  • Codec ID                                 : A_DTS

  • Duration                                 : 1h 33mn

  • Bit rate mode                            : Constant

  • Bit rate                                 : 768 Kbps

  • Channel(s)                               : 6 channels

  • Channel positions                        : Front: L C R, Side: L R, LFE

  • Sampling rate                            : 48.0 KHz

  • Bit depth                                : 24 bits

  • Compression mode                         : Lossy

  • Stream size                              : 515 MiB (3%)

  • Title                                    : Home.2015.1080p.3D.BluRay.Half-OU.x264.DTS-HD.MA.7.1-RARBG

  • Language                                 : Dutch

  • Default                                  : No

  • Forced                                   : No



  • Audio #5

  • ID                                       : 6

  • Format                                   : DTS

  • Format/Info                              : Digital Theater Systems

  • Mode                                     : 16

  • Format settings, Endianness              : Big

  • Codec ID                                 : A_DTS

  • Duration                                 : 1h 33mn

  • Bit rate mode                            : Constant

  • Bit rate                                 : 768 Kbps

  • Channel(s)                               : 6 channels

  • Channel positions                        : Front: L C R, Side: L R, LFE

  • Sampling rate                            : 48.0 KHz

  • Bit depth                                : 24 bits

  • Compression mode                         : Lossy

  • Stream size                              : 515 MiB (3%)

  • Title                                    : Home.2015.1080p.3D.BluRay.Half-OU.x264.DTS-HD.MA.7.1-RARBG

  • Language                                 : German

  • Default                                  : No

  • Forced                                   : No



  • Audio #6

  • ID                                       : 7

  • Format                                   : DTS

  • Format/Info                              : Digital Theater Systems

  • Mode                                     : 16

  • Format settings, Endianness              : Big

  • Codec ID                                 : A_DTS

  • Duration                                 : 1h 33mn

  • Bit rate mode                            : Constant

  • Bit rate                                 : 768 Kbps

  • Channel(s)                               : 6 channels

  • Channel positions                        : Front: L C R, Side: L R, LFE

  • Sampling rate                            : 48.0 KHz

  • Bit depth                                : 24 bits

  • Compression mode                         : Lossy

  • Stream size                              : 515 MiB (3%)

  • Title                                    : Home.2015.1080p.3D.BluRay.Half-OU.x264.DTS-HD.MA.7.1-RARBG

  • Language                                 : Italian

  • Default                                  : No

  • Forced                                   : No



  • Audio #7

  • ID                                       : 8

  • Format                                   : DTS

  • Format/Info                              : Digital Theater Systems

  • Mode                                     : 16

  • Format settings, Endianness              : Big

  • Codec ID                                 : A_DTS

  • Duration                                 : 1h 33mn

  • Bit rate mode                            : Constant

  • Bit rate                                 : 768 Kbps

  • Channel(s)                               : 6 channels

  • Channel positions                        : Front: L C R, Side: L R, LFE

  • Sampling rate                            : 48.0 KHz

  • Bit depth                                : 24 bits

  • Compression mode                         : Lossy

  • Stream size                              : 515 MiB (3%)

  • Title                                    : Home.2015.1080p.3D.BluRay.Half-OU.x264.DTS-HD.MA.7.1-RARBG

  • Language                                 : Dutch

  • Default                                  : No

  • Forced                                   : No



  • Audio #8

  • ID                                       : 9

  • Format                                   : AC-3

  • Format/Info                              : Audio Coding 3

  • Mode extension                           : CM (complete main)

  • Format settings, Endianness              : Big

  • Codec ID                                 : A_AC3

  • Duration                                 : 1h 33mn

  • Bit rate mode                            : Constant

  • Bit rate                                 : 448 Kbps

  • Channel(s)                               : 6 channels

  • Channel positions                        : Front: L C R, Side: L R, LFE

  • Sampling rate                            : 48.0 KHz

  • Bit depth                                : 16 bits

  • Compression mode                         : Lossy

  • Stream size                              : 301 MiB (2%)

  • Title                                    : Home.2015.1080p.3D.BluRay.Half-OU.x264.DTS-HD.MA.7.1-RARBG

  • Language                                 : Chinese

  • Default                                  : No

  • Forced                                   : No



  • Text #1

  • ID                                       : 10

  • Format                                   : PGS

  • Muxing mode                              : zlib

  • Codec ID                                 : S_HDMV/PGS

  • Codec ID/Info                            : Picture based subtitle format used on BDs/HD-DVDs

  • Language                                 : English

  • Default                                  : No

  • Forced                                   : No



  • Text #2

  • ID                                       : 11

  • Format                                   : PGS

  • Muxing mode                              : zlib

  • Codec ID                                 : S_HDMV/PGS

  • Codec ID/Info                            : Picture based subtitle format used on BDs/HD-DVDs

  • Language                                 : French

  • Default                                  : No

  • Forced                                   : No



  • Text #3

  • ID                                       : 12

  • Format                                   : PGS

  • Muxing mode                              : zlib

  • Codec ID                                 : S_HDMV/PGS

  • Codec ID/Info                            : Picture based subtitle format used on BDs/HD-DVDs

  • Language                                 : Dutch

  • Default                                  : No

  • Forced                                   : No



  • Text #4

  • ID                                       : 13

  • Format                                   : PGS

  • Muxing mode                              : zlib

  • Codec ID                                 : S_HDMV/PGS

  • Codec ID/Info                            : Picture based subtitle format used on BDs/HD-DVDs

  • Language                                 : German

  • Default                                  : No

  • Forced                                   : No



  • Text #5

  • ID                                       : 14

  • Format                                   : PGS

  • Muxing mode                              : zlib

  • Codec ID                                 : S_HDMV/PGS

  • Codec ID/Info                            : Picture based subtitle format used on BDs/HD-DVDs

  • Language                                 : Italian

  • Default                                  : No

  • Forced                                   : No



  • Text #6

  • ID                                       : 15

  • Format                                   : PGS

  • Muxing mode                              : zlib

  • Codec ID                                 : S_HDMV/PGS

  • Codec ID/Info                            : Picture based subtitle format used on BDs/HD-DVDs

  • Language                                 : Chinese

  • Default                                  : No

  • Forced                                   : No



  • Menu

  • 00:00:00.000                             : en01)00:00:00:000

  • 00:03:43.806                             : en02)00:03:43:806

  • 00:07:28.406                             : en03)00:07:28:406

  • 00:11:19.470                             : en04)00:11:19:470

  • 00:14:26.949                             : en05)00:14:26:949

  • 00:17:58.952                             : en06)00:17:58:952

  • 00:21:05.639                             : en07)00:21:05:639

  • 00:25:18.850                             : en000:25:18:850

  • 00:29:07.078                             : en09)00:29:07:078

  • 00:33:14.617                             : en10)00:33:14:617

  • 00:38:58.961                             : en11)00:38:58:961

  • 00:41:31.155                             : en12)00:41:31:155

  • 00:44:27.539                             : en13)00:44:27:539

  • 00:46:50.933                             : en14)00:46:50:933

  • 00:51:34.758                             : en15)00:51:34:758

  • 00:56:25.924                             : en16)00:56:25:924

  • 01:00:43.681                             : en17)01:00:43:681

  • 01:03:53.496                             : en101:03:53:496

  • 01:06:57.722                             : en19)01:06:57:722

  • 01:09:44.180                             : en20)01:09:44:180

  • 01:13:55.764                             : en21)01:13:55:764

  • 01:18:11.770                             : en22)01:18:11:770

  • 01:21:55.368                             : en23)01:21:55:368

  • 01:23:56.031                             : en24)01:23:56:031





游客,如果您要查看本帖隐藏内容请回复
上一篇:疯狂外星人/家园[3D左右]Home.2015.1080p.3D迅雷高清电影下载 16.9GB
下一篇:异星战场[3D上下]John.Carter.2012.1080p.3D迅雷高清电影下载 20.38GB

点评

海!外直播 t.cn/RxmJTRS 禁闻视频 t.cn/RxmJKCf 当你孩子失学时,国家不见了;当你看不起病时,国家不见了;当你讨要血汗钱时,国家不见了;当你举牌示!威讨要血汗钱的时候,国家出现了,这赵国“国家”真面目到底是什么.  发表于 2017-12-3 03:53
各类视频 套图 查看网址: m5ys.info  发表于 2017-7-4 23:54
各类视频 套图 查看网址: m5ys.info  发表于 2017-7-4 21:53
您需要登录后才可以回帖 登录 | 立即注册

本版积分规则

手机版|小黑屋|亚洲影片   

GMT+8, 2018-1-5 15:06 , Processed in 0.698778 second(s), 27 queries , Xcache On.

Powered by Discuz! X3

© 2001-2013 Comsenz Inc.

快速回复 返回顶部 返回列表